Erase una vez en Euskadi 2021 1080p HMAX WEB-DL DD5 1 H 264-playWEB

Euskadi 1985. It’s summer time, the holidays are finally here. Marcos and his three friends, José Antonio, Paquito and Toni, anxiously await a promising summer break from the fresh view of 12-year-olds who have little care for where, how or when. They will while away the hours in the maze life has prepared for them, in an old, turbulent and trembling Euskadi. A maze of painted walls, where rubber balls and dreams bounce together; all covered by a sky tinged with the grey of prefabricated concrete, where life and death no longer keep formal relationships.
Download

Erase una vez en Euskadi 2021 1080p HMAX WEB-DL DD5 1 H 264-playWEB – 5.84 GB
mkv | 1920×1080 | 8624 Kbps | A_AC3 at 384 Kbps
Links: RapidGatorMultiUP (Google Drive, Uptobox, 1fichier)
Pass: 22+nr1igpm0&jb

MediaInfo
General
Unique ID : 165766017739018754068621043539096387890 (0x7CB55FACEF8D95AA7FCD0EA265B44132)
Complete name : Erase.una.vez.en.Euskadi.2021.1080p.HMAX.WEB-DL.DD5.1.H.264-playWEB.mkv
Format : Matroska
Format version : Version 4
File size : 5.84 GiB
Duration : 1 h 36 min
Overall bit rate mode : Variable
Overall bit rate : 8 624 kb/s
Encoded date : UTC 2022-04-14 07:24:36
Writing application : mkvmerge v66.0.0 (‘Josie’) 64-bit
Writing library : libebml v1.4.2 + libmatroska v1.6.4

Video
ID : 1
Format : AVC
Format/Info : Advanced Video Codec
Format profile : [email protected]
Format settings : CABAC / 4 Ref Frames
Format settings, CABAC : Yes
Format settings, Reference frames : 4 frames
Codec ID : V_MPEG4/ISO/AVC
Duration : 1 h 36 min
Bit rate mode : Variable
Bit rate : 8 250 kb/s
Maximum bit rate : 12.4 Mb/s
Width : 1 920 pixels
Height : 1 080 pixels
Display aspect ratio : 16:9
Frame rate mode : Constant
Frame rate : 25.000 FPS
Color space : YUV
Chroma subsampling : 4:2:0
Bit depth : 8 bits
Scan type : Progressive
Bits/(Pixel*Frame) : 0.159
Stream size : 5.58 GiB (96%)
Writing library : x264 core 157 r2965 861cec4
Encoding settings : cabac=1 / ref=4 / deblock=1:0:0 / analyse=0x3:0x113 / me=hex / subme=7 / psy=1 / psy_rd=1.00:0.00 / mixed_ref=1 / me_range=16 / chroma_me=1 / trellis=1 / 8x8dct=1 / cqm=0 / deadzone=21,11 / fast_pskip=1 / chroma_qp_offset=-2 / threads=34 / lookahead_threads=5 / sliced_threads=0 / nr=0 / decimate=1 / interlaced=0 / bluray_compat=0 / constrained_intra=0 / bframes=3 / b_pyramid=2 / b_adapt=1 / b_bias=0 / direct=1 / weightb=1 / open_gop=0 / weightp=2 / keyint=100 / keyint_min=100 / scenecut=40 / intra_refresh=0 / rc_lookahead=40 / rc=2pass / mbtree=1 / bitrate=8250 / ratetol=1.0 / qcomp=0.60 / qpmin=0 / qpmax=69 / qpstep=4 / cplxblur=20.0 / qblur=0.5 / vbv_maxrate=12375 / vbv_bufsize=6187 / nal_hrd=vbr / filler=0 / ip_ratio=1.40 / aq=1:1.00
Language : Spanish
Default : Yes
Forced : No
Color range : Limited
Color primaries : BT.709
Transfer characteristics : BT.709
Matrix coefficients : BT.709

Audio
ID : 2
Format : AC-3
Format/Info : Audio Coding 3
Commercial name : Dolby Digital
Codec ID : A_AC3
Duration : 1 h 36 min
Bit rate mode : Constant
Bit rate : 384 kb/s
Channel(s) : 6 channels
Channel layout : L R C LFE Ls Rs
Sampling rate : 48.0 kHz
Frame rate : 31.250 FPS (1536 SPF)
Compression mode : Lossy
Stream size : 266 MiB (4%)
Language : Spanish
Service kind : Complete Main
Default : Yes
Forced : No

Text #1
ID : 3
Format : UTF-8
Codec ID : S_TEXT/UTF8
Codec ID/Info : UTF-8 Plain Text
Duration : 1 h 34 min
Bit rate : 84 b/s
Count of elements : 1034
Stream size : 58.2 KiB (0%)
Language : Bulgarian
Default : No
Forced : No

Text #2
ID : 4
Format : UTF-8
Codec ID : S_TEXT/UTF8
Codec ID/Info : UTF-8 Plain Text
Duration : 1 h 34 min
Bit rate : 52 b/s
Count of elements : 1142
Stream size : 36.6 KiB (0%)
Title : Czechia
Language : Czech
Default : No
Forced : No

Text #3
ID : 5
Format : UTF-8
Codec ID : S_TEXT/UTF8
Codec ID/Info : UTF-8 Plain Text
Duration : 1 h 30 min
Bit rate : 50 b/s
Count of elements : 1093
Stream size : 33.4 KiB (0%)
Language : English
Default : No
Forced : No

Text #4
ID : 6
Format : UTF-8
Codec ID : S_TEXT/UTF8
Codec ID/Info : UTF-8 Plain Text
Duration : 1 h 34 min
Bit rate : 47 b/s
Count of elements : 928
Stream size : 32.9 KiB (0%)
Language : Croatian
Default : No
Forced : No

Text #5
ID : 7
Format : UTF-8
Codec ID : S_TEXT/UTF8
Codec ID/Info : UTF-8 Plain Text
Duration : 1 h 32 min
Bit rate : 46 b/s
Count of elements : 1084
Stream size : 31.4 KiB (0%)
Language : Hungarian
Default : No
Forced : No

Text #6
ID : 8
Format : UTF-8
Codec ID : S_TEXT/UTF8
Codec ID/Info : UTF-8 Plain Text
Duration : 1 h 34 min
Bit rate : 82 b/s
Count of elements : 928
Stream size : 57.3 KiB (0%)
Language : Macedonian
Default : No
Forced : No

Text #7
ID : 9
Format : UTF-8
Codec ID : S_TEXT/UTF8
Codec ID/Info : UTF-8 Plain Text
Duration : 1 h 32 min
Bit rate : 36 b/s
Count of elements : 1016
Stream size : 24.8 KiB (0%)
Language : Polish
Default : No
Forced : No

Text #8
ID : 10
Format : UTF-8
Codec ID : S_TEXT/UTF8
Codec ID/Info : UTF-8 Plain Text
Duration : 1 h 30 min
Bit rate : 58 b/s
Count of elements : 1082
Stream size : 39.2 KiB (0%)
Language : Romanian
Default : No
Forced : No

Text #9
ID : 11
Format : UTF-8
Codec ID : S_TEXT/UTF8
Codec ID/Info : UTF-8 Plain Text
Duration : 1 h 34 min
Bit rate : 46 b/s
Count of elements : 928
Stream size : 31.9 KiB (0%)
Title : Slovenia
Language : Slovenian
Default : No
Forced : No

Text #10
ID : 12
Format : UTF-8
Codec ID : S_TEXT/UTF8
Codec ID/Info : UTF-8 Plain Text
Duration : 1 h 34 min
Bit rate : 47 b/s
Count of elements : 928
Stream size : 32.8 KiB (0%)
Title : Latin, Serbia
Language : Serbian
Default : No
Forced : No

Direct Link Download

Leave a Reply

Your email address will not be published.