Chucky S01 1080p Bluray x265-HiQVE

After a vintage Chucky doll turns up at a suburban yard sale, an idyllic American town is thrown into chaos as a series of horrifying murders begin to expose the town’s hypocrisies and secrets. Meanwhile, the arrival of enemies – and allies – from Chucky’s past threatens to expose the truth behind the killings, as well as the demon doll’s untold origins.
Download

Chucky S01 1080p Bluray x265-HiQVE – 8.15 GB
part1.rar | N/AxN/A | N/A | N/A at N/A
Links: RapidGatorMultiUP (Google Drive, Uptobox, 1fichier)
Pass: 9<.u2cuopq

Episode List
Chucky.S01E01.1080p.Bluray.x265-HiQVE.mkv ~ 1.030 GiB
Chucky.S01E02.1080p.Bluray.x265-HiQVE.mkv ~ 935.0 MiB
Chucky.S01E03.1080p.Bluray.x265-HiQVE.mkv ~ 1.166 GiB
Chucky.S01E04.1080p.Bluray.x265-HiQVE.mkv ~ 920.6 MiB
Chucky.S01E05.1080p.Bluray.x265-HiQVE.mkv ~ 1.055 GiB
Chucky.S01E06.1080p.Bluray.x265-HiQVE.mkv ~ 1.060 GiB
Chucky.S01E07.1080p.Bluray.x265-HiQVE.mkv ~ 945.9 MiB
Chucky.S01E08.1080p.Bluray.x265-HiQVE.mkv ~ 1.104 GiB
MediaInfo
General
Unique ID : 8979253844288967968824615243136893984 (0x6C157650D9413BD255C714FF40C0420)
Complete name : Chucky.S01E08.1080p.Bluray.x265-HiQVE.mkv
Format : Matroska
Format version : Version 4
File size : 1.10 GiB
Duration : 54 min 29 s
Overall bit rate : 2 902 kb/s
Movie name : Chucky.S01E08.1080p.Bluray.x265-HiQVE
Encoded date : UTC 2022-04-14 10:08:55
Writing application : mkvmerge v63.0.0 (‘Everything’) 64-bit
Writing library : libebml v1.4.2 + libmatroska v1.6.4 / Lavf58.76.100
RELEASE_NAME : HiQVE Encode

Video
ID : 1
Format : HEVC
Format/Info : High Efficiency Video Coding
Format profile : Main [email protected]@Main
Codec ID : V_MPEGH/ISO/HEVC
Duration : 54 min 29 s
Bit rate : 2 452 kb/s
Width : 1 920 pixels
Height : 1 080 pixels
Display aspect ratio : 16:9
Frame rate mode : Variable
Frame rate : 23.976 FPS
Color space : YUV
Chroma subsampling : 4:2:0
Bit depth : 10 bits
Bits/(Pixel*Frame) : 0.049
Stream size : 956 MiB (84%)
Writing library : Lavc58.134.100 libx265
Default : Yes
Forced : No
Color range : Full
colour_range_Original : Limited
Color primaries : BT.709
Transfer characteristics : BT.709
Matrix coefficients : BT.709

Audio
ID : 2
Format : AC-3
Format/Info : Audio Coding 3
Commercial name : Dolby Digital
Codec ID : A_AC3
Duration : 54 min 29 s
Bit rate mode : Constant
Bit rate : 448 kb/s
Channel(s) : 6 channels
Channel layout : L R C LFE Ls Rs
Sampling rate : 48.0 kHz
Frame rate : 31.250 FPS (1536 SPF)
Bit depth : 16 bits
Compression mode : Lossy
Stream size : 175 MiB (15%)
Writing library : Lavc58.134.100 ac3
Service kind : Complete Main
Default : Yes
Forced : No

Text
ID : 3
Format : UTF-8
Codec ID : S_TEXT/UTF8
Codec ID/Info : UTF-8 Plain Text
Duration : 54 min 14 s
Bit rate : 50 b/s
Count of elements : 673
Stream size : 20.1 KiB (0%)
Title : English
Language : English
Default : Yes
Forced : Yes

Menu
00:00:00.000 : 00:00:00.000
00:08:41.229 : 00:08:41.229
00:26:37.679 : 00:26:37.679
00:37:56.524 : 00:37:56.524

Direct Link Download

Leave a Reply

Your email address will not be published.